<?xml version="1.0" encoding="utf-8"?>
<svg id="master-artboard" viewBox="0 0 50 50" version="1.1" xmlns="http://www.w3.org/2000/svg" x="0px" y="0px" style="enable-background:new 0 0 1400 980;" width="50px" height="50px"><rect id="ee-background" x="0" y="0" width="50" height="50" style="fill: white; fill-opacity: 0; pointer-events: none;"/><defs><style id="ee-google-fonts">@import url(https://fonts.googleapis.com/css?family=Fjalla+One:400|Roboto:100,100italic,300,300italic,400,400italic,500,500italic,700,700italic,900,900italic);</style><font id="FontID0" horiz-adv-x="667" font-variant="normal" style="fill-rule:nonzero" font-weight="400,700">
	<font-face font-family="Arial">
	</font-face>
   <missing-glyph><path d="M0 0z"/></missing-glyph>
   <glyph unicode="f" horiz-adv-x="277"><path d="M87.0084 0l0 450.996 -78.0171 0 0 68.0114 78.0171 0 0 55.0019c0,34.8312 2.98383,60.6513 9.1504,77.5 8.51385,22.6572 23.1744,41.1569 44.4988,55.3202 21.1852,14.1632 51.0036,21.1653 89.3358,21.1653 24.8453,0 52.1772,-3.00372 82.1746,-8.83213l-13.1686 -77.0026c-18.3406,3.18275 -35.5075,4.8338 -51.839,4.8338 -26.6555,0 -45.4934,-5.66927 -56.6529,-16.9879 -11.0004,-11.3385 -16.5105,-32.5038 -16.5105,-63.4959l0 -47.5025 101.013 0 0 -68.0114 -100.018 0 0 -450.996 -87.9831 0z"/></glyph>
   <glyph unicode="c" horiz-adv-x="556"><path d="M524.001 364.999l-135.007 -23.9951c-4.50064,26.8298 -14.8322,46.9956 -30.9947,60.6592 -16.1625,13.5019 -36.9997,20.3399 -62.6608,20.3399 -34.1775,0 -61.5046,-11.8359 -81.8445,-35.5078 -20.3275,-23.6594 -30.4974,-63.1582 -30.4974,-118.658 0,-61.6662 10.3316,-105.168 31.0072,-130.668 20.6632,-25.4995 48.3259,-38.1684 83.0008,-38.1684 25.9968,0 47.3313,7.49692 63.8295,22.3291 16.6598,14.8322 28.3341,40.3317 35.1597,76.6725l135.007 -23.0005c-13.9992,-62.0019 -40.829,-108.836 -80.5018,-140.502 -39.6603,-31.6661 -92.835,-47.5054 -159.661,-47.5054 -75.6655,0 -136.175,24.0076 -181.169,71.8362 -45.168,48.0027 -67.6712,114.331 -67.6712,199.172 0,85.8354 22.6648,152.5 67.8329,200.328 45.168,47.8411 106.337,71.6621 183.507,71.6621 62.9965,0 113.163,-13.6635 150.498,-40.829 37.1614,-27.1655 63.8295,-68.5042 80.1661,-124.165z"/></glyph>
   <glyph unicode="t" horiz-adv-x="332"><path d="M309.003 519.003l0 -108.998 -94.0037 0 0 -210.175c0,-42.6691 0.832991,-67.4972 2.67303,-74.4968 1.82761,-6.99961 5.83094,-12.8306 12.3332,-17.5053 6.32825,-4.50064 13.9992,-6.82556 23.1621,-6.82556 12.8306,0 31.1688,4.32658 55.338,13.1662l11.5003 -106.673c-31.8402,-13.6635 -67.8329,-20.5015 -108.177,-20.5015 -24.6665,0 -46.834,4.17739 -66.6642,12.5073 -19.8302,8.32991 -34.3267,19.1588 -43.502,32.325 -9.32453,13.3403 -15.6652,31.1688 -19.3329,53.8336 -2.83466,16.0009 -4.32658,48.3384 -4.32658,97.174l0 227.17 -63.009 0 0 108.998 63.009 0 0 102.993 136.996 80.9991 0 -183.992 94.0037 0z"/></glyph>
   <glyph unicode="R" horiz-adv-x="722"><path d="M73.0018 0l0 716 304.496 0c76.499,0 132.171,-6.49749 166.84,-19.3366 34.8254,-12.8294 62.4909,-35.6631 83.3277,-68.5013 20.8368,-32.994 31.338,-70.4983 31.338,-112.825 0,-53.8405 -15.6739,-98.1735 -47.1677,-133.174 -31.5036,-35.0007 -78.5057,-56.9967 -141.172,-66.1634 31.1724,-18.1676 56.8409,-38.1667 77.0055,-59.9971 20.3302,-21.8401 47.6645,-60.6692 81.9931,-116.341l87.3411 -139.662 -172.841 0 -103.658 156.329c-37.1731,55.5063 -62.676,90.507 -76.5087,105.002 -13.6671,14.3393 -28.1623,24.3339 -43.4952,29.6722 -15.4985,5.32853 -39.8324,7.99766 -73.1674,7.99766l-29.3313 0 0 -299.002 -145 0zm145 413.005l106.999 0c69.3293,0 112.503,2.9906 129.833,8.82568 17.1643,5.83508 30.8314,16.0051 40.4949,30.3346 9.83878,14.3393 14.6705,32.3316 14.6705,53.8308 0,24.1683 -6.49749,43.5049 -19.3366,58.5066 -12.8294,14.8264 -30.997,24.1683 -54.3276,27.9967 -11.8358,1.66577 -47.0021,2.50353 -105.499,2.50353l-112.834 0 0 -181.998z"/></glyph>
   <glyph unicode="A" horiz-adv-x="667"><path d="M-1.50017 0l274.668 716 104.164 0 291.501 -716 -107.837 0 -82.8308 216.999 -301.495 0 -77.6679 -216.999 -100.502 0zm206.001 294.004l244.002 0 -74.6676 198.5c-22.5026,60.3283 -39.5012,110.165 -51.337,149.501 -9.82904,-46.6709 -22.9994,-92.504 -39.5012,-137.84l-78.4959 -210.16z"/></glyph>
   <glyph unicode="-" horiz-adv-x="332"><path d="M30.992 214.995l0 88.003 272.006 0 0 -88.003 -272.006 0z"/></glyph>
   <glyph unicode="n" horiz-adv-x="610"><path d="M544.006 0l-137.008 0 0 264.506c0,55.9969 -2.99628,92.1637 -8.82722,108.5 -6.005,16.4982 -15.5036,29.1547 -28.8314,38.33 -13.3403,9.16291 -29.3412,13.6635 -48.0027,13.6635 -24.0076,0 -45.5037,-6.50231 -64.5009,-19.4945 -19.1712,-13.0046 -32.1634,-30.3358 -39.163,-51.6703 -7.17367,-21.4962 -10.6673,-61.1689 -10.6673,-119.168l0 -234.667 -137.008 0 0 519.003 127 0 0 -76.1752c45.5037,58.1726 102.669,87.1657 171.832,87.1657 30.3358,0 58.1726,-5.49526 83.3364,-16.3241 25.3379,-11.0029 44.335,-24.8406 57.1656,-41.6744 13.0046,-16.9955 22.0059,-36.1667 27.0038,-57.6629 5.15957,-21.4962 7.67098,-52.1676 7.67098,-92.1637l0 -322.169z"/></glyph>
   <glyph unicode="I" horiz-adv-x="277"><path d="M92.996 0l0 715.999 95.0051 0 0 -715.999 -95.0051 0z"/></glyph>
   <glyph unicode="y" horiz-adv-x="556"><path d="M6.005 519.003l145.997 0 124.501 -368.17 121.492 368.17 142.006 0 -182.997 -499.509 -33.0088 -90.162c-12.1592,-30.1617 -23.6594,-53.1623 -34.6624,-69.1632 -10.8289,-15.8393 -23.4978,-28.8314 -37.6711,-38.6657 -14.1609,-10.0083 -31.6661,-17.6669 -52.4909,-23.1746 -20.6756,-5.49526 -44.1734,-8.32991 -70.3443,-8.32991 -26.3325,0 -52.3293,2.83466 -77.8288,8.32991l-11.9976 107.008c21.4962,-4.16496 41.0031,-6.34068 58.3343,-6.34068 32.0018,0 55.6612,9.33696 71.0032,28.1725 15.3295,18.8356 27.1655,42.8307 35.3338,71.8362l-197.668 519.998z"/></glyph>
   <glyph unicode="h" horiz-adv-x="610"><path d="M207.005 716l0 -265.339c44.4967,52.839 97.833,79.3331 159.661,79.3331 31.8402,0 60.4976,-5.83094 85.997,-17.4928 25.4995,-11.8359 44.6707,-26.6682 57.6753,-45.0064 12.9922,-18.1642 21.8318,-38.33 26.4941,-60.4976 4.83632,-22.1675 7.17367,-56.4942 7.17367,-102.993l0 -304.005 -137.008 0 0 273.669c0,54.3309 -2.6606,88.8317 -7.83261,103.502 -5.33363,14.6582 -14.6706,26.3325 -27.9985,34.824 -13.3279,8.6656 -30.0001,13.0046 -50.166,13.0046 -23.0005,0 -43.502,-5.49526 -61.6662,-16.6723 -18.1642,-10.9905 -31.3304,-27.6628 -39.6728,-49.9919 -8.49154,-22.1675 -12.6565,-55.1639 -12.6565,-98.666l0 -259.67 -137.008 0 0 716 137.008 0z"/></glyph>
   <glyph unicode="e" horiz-adv-x="556"><path d="M371.999 164l136.996 -23.0005c-17.4928,-50.166 -45.3297,-88.3344 -83.1624,-114.667 -37.9944,-26.1709 -85.4997,-39.3371 -142.33,-39.3371 -90.1744,0 -157,29.5028 -200.167,88.5084 -34.1651,47.3313 -51.3347,106.996 -51.3347,179.168 0,85.997 22.5032,153.494 67.3355,202.156 44.8323,48.8357 101.662,73.1665 170.328,73.1665 76.9958,0 137.829,-25.4995 182.5,-76.4985 44.4967,-50.999 65.8312,-129.163 63.8295,-234.493l-342.994 0c0.994617,-40.6674 11.9976,-72.3335 33.1705,-94.9983 20.9988,-22.6648 47.3313,-34.0035 78.6617,-34.0035 21.4962,0 39.4987,5.83094 53.9953,17.5053 14.6706,11.6619 25.6735,30.4974 33.1705,56.4942zm8.00666 138.998c-1.00705,39.8344 -11.177,70.1702 -30.6715,90.8334 -19.5069,20.8372 -43.1664,31.1688 -71.1648,31.1688 -29.8385,0 -54.505,-11.0029 -73.9995,-32.8348 -19.5069,-21.8318 -29.0055,-51.6703 -28.6698,-89.1674l204.506 0z"/></glyph>
   <glyph unicode="T" horiz-adv-x="610"><path d="M233.997 0l0 595.003 -212.001 0 0 120.998 568 0 0 -120.998 -210.998 0 0 -595.003 -145 0z"/></glyph>
   <glyph unicode="C" horiz-adv-x="722"><path d="M586.995 251.171l95.0075 -24.0027c-19.8334,-77.8335 -55.5063,-137.003 -106.999,-177.838 -51.5026,-40.8261 -114.5,-61.3316 -189.002,-61.3316 -77.0055,0 -139.672,15.6641 -187.999,47.1677 -48.3367,31.338 -85.0032,76.8302 -110.165,136.33 -25.1717,59.6659 -37.8355,123.501 -37.8355,191.837 0,74.502 14.1639,139.496 42.6672,195.003 28.4935,55.4966 68.9981,97.6669 121.494,126.501 52.506,28.8247 110.34,43.164 173.338,43.164 71.6672,0 131.83,-18.1676 180.498,-54.6685 48.8335,-36.5009 82.8308,-87.6626 102.002,-153.67l-93.0008 -21.996c-16.5019,51.9994 -40.6702,90.0005 -72.164,113.662 -31.5036,23.8371 -71.1704,35.6729 -119.001,35.6729 -54.8342,0 -100.833,-13.1703 -137.665,-39.5012 -36.8418,-26.3309 -62.8416,-61.8382 -77.6679,-106.171 -15.0017,-44.4986 -22.5026,-90.3317 -22.5026,-137.499 0,-60.8348 8.83542,-113.993 26.4965,-159.33 17.6708,-45.5019 45.1707,-79.3337 82.4996,-101.836 37.3387,-22.4928 77.6679,-33.6662 121.173,-33.6662 52.993,0 97.6669,15.3329 134.333,45.8331 36.6665,30.6658 61.4972,76.0021 74.4922,136.34z"/></glyph>
   <glyph unicode="s" horiz-adv-x="499"><path d="M30.992 155l87.0084 14.0041c4.8338,-34.8312 18.4997,-61.5066 40.8387,-80.1655 22.319,-18.4997 53.6691,-27.8292 93.6524,-27.8292 40.5005,0 70.5178,8.1558 90.1713,24.6663 19.4943,16.3315 29.341,35.6667 29.341,57.8266 0,19.8325 -8.83213,35.5075 -26.3373,46.8262 -12.3332,7.83752 -42.3306,17.6643 -89.9922,29.8383 -64.3313,16.1723 -108.85,30.1764 -133.835,41.9924 -24.8453,12.0149 -43.6633,28.3464 -56.5137,49.3326 -12.8305,20.847 -19.3352,44.0015 -19.3352,69.3442 0,23.1545 5.351,44.4988 15.8342,64.1722 10.6821,19.6535 25.0045,35.985 43.166,48.9945 13.6659,10.0058 32.3447,18.4997 55.8374,25.5018 23.6717,7.00205 48.8353,10.5031 75.829,10.5031 40.6795,0 76.3462,-5.8483 107,-17.6643 30.8329,-11.6767 53.51,-27.67 68.1705,-47.6816 14.5014,-20.1707 24.6663,-46.9853 30.1764,-80.6628l-86.0138 -11.995c-3.8193,26.9937 -15.1578,48.159 -33.8167,63.3367 -18.6788,15.1578 -45.016,22.6572 -79.1709,22.6572 -40.1623,0 -69.006,-6.66388 -86.1729,-19.9916 -17.167,-13.3477 -25.8201,-29.0028 -25.8201,-46.8461 0,-11.3187 3.48113,-21.6626 10.6622,-30.8329 7.16119,-9.32943 18.3207,-17.167 33.6576,-23.3335 8.83213,-3.32199 34.5129,-10.8213 77.5,-22.4981 62.0039,-16.4906 105.329,-30.1566 129.995,-40.6596 24.6663,-10.5031 44.0015,-25.9991 58.0056,-46.0106 14.1632,-20.1508 21.1653,-45.1553 21.1653,-75.1527 0,-29.1818 -8.49396,-56.6728 -25.6609,-82.5128 -17.167,-25.8201 -41.8333,-45.8316 -73.9989,-59.9948 -32.3447,-14.1632 -68.827,-21.1653 -109.506,-21.1653 -67.335,0 -118.836,14.0041 -154.164,41.8333 -35.3285,28.0082 -57.8266,69.3243 -67.6732,124.167z"/></glyph>
   <glyph unicode="p" horiz-adv-x="556"><path d="M66.0023 -199.001l0 718.008 80.0064 0 0 -68.1705c18.818,26.3373 40.1623,46.1698 63.9932,59.3384 23.6717,13.1487 52.4955,19.8325 86.3321,19.8325 44.3397,0 83.3284,-11.3385 117.165,-34.1748 33.8366,-22.6572 59.3384,-54.8229 76.6645,-96.1588 17.167,-41.515 25.8399,-86.8493 25.8399,-136.341 0,-52.8336 -9.50846,-100.495 -28.5055,-143.005 -18.997,-42.3306 -46.6671,-74.8344 -82.9902,-97.4916 -36.1839,-22.4981 -74.3371,-33.8366 -114.34,-33.8366 -29.341,0 -55.6583,6.16658 -78.8327,18.4997 -23.3335,12.3332 -42.3306,27.8292 -57.3293,46.6671l0 -253.168 -88.003 0zm80.0064 455.332c0,-66.4996 13.4869,-115.673 40.3215,-147.501 26.9937,-31.8275 59.6766,-47.8208 98.0088,-47.8208 38.9887,0 72.328,16.4906 99.998,49.4918 27.8292,33.0011 41.6542,84.0047 41.6542,153.17 0,66.0023 -13.4869,115.335 -40.6596,148.157 -27.1727,32.842 -59.4975,49.1735 -97.1733,49.1735 -37.3177,0 -70.3189,-17.5051 -98.9835,-52.3363 -28.8437,-34.9904 -43.166,-85.6557 -43.166,-152.334z"/></glyph>
   <glyph unicode="N" horiz-adv-x="722"><path d="M76.008 0l0 715.999 97.3325 0 375.664 -561.994 0 561.994 90.9869 0 0 -715.999 -97.3325 0 -375.664 561.994 0 -561.994 -90.9869 0z"/></glyph>
   <glyph unicode="H" horiz-adv-x="722"><path d="M73.0018 0l0 716 145 0 0 -282.003 282.003 0 0 282.003 144.991 0 0 -716 -144.991 0 0 313 -282.003 0 0 -313 -145 0z"/></glyph>
   <glyph unicode="V" horiz-adv-x="667"><path d="M280.997 0l-276.661 715.999 102.664 0 185.992 -520.34c14.8396,-41.6542 27.5109,-80.6628 37.5167,-117.165 11.0004,39.1677 23.8308,78.1763 38.4914,117.165l192.994 520.34 96.676 0 -279.167 -715.999 -98.5061 0z"/></glyph>
   <glyph unicode="g" horiz-adv-x="610"><path d="M59.0056 -32.9964l157 -19.0096c2.6606,-18.4999 8.6656,-31.1564 17.9901,-38.156 13.1662,-9.83427 33.6678,-14.8322 61.6662,-14.8322 35.8435,0 62.6733,5.33363 80.6758,16.1625 11.9976,7.16124 21.1605,18.6615 27.3271,34.6624 4.16496,11.3386 6.34068,32.4991 6.34068,62.9965l0.658934 75.8395c-41.3263,-56.4942 -93.3323,-84.6667 -155.993,-84.6667 -69.6729,0 -125.011,29.5028 -165.666,88.3344 -32.0018,46.4983 -48.0027,104.497 -48.0027,173.66 0,87.0041 20.9988,153.345 62.8349,199.172 41.8236,45.8394 93.9913,68.8275 156.329,68.8275 64.1652,0 117.166,-28.1601 158.828,-84.4927l0 73.5022 128.007 0 0 -465.331c0,-61.1689 -4.99795,-107.008 -15.1679,-137.17 -9.9959,-30.3358 -24.1692,-54.0077 -42.495,-71.3389 -18.1766,-17.1571 -42.5074,-30.8331 -73.0049,-40.4933 -30.4974,-9.83427 -69.0015,-14.6706 -115.5,-14.6706 -87.9987,0 -150.336,15.1679 -187.162,45.3297 -36.8381,30.3358 -55.1764,68.5042 -55.1764,115.003 0,4.50064 0.174058,10.17 0.509741,16.6723zm122.997 302.998c0,-55.0023 10.6673,-95.1724 31.8277,-120.672 21.3345,-25.4995 47.667,-38.33 78.8358,-38.33 33.3321,0 61.6662,13.1662 84.6667,39.3371 23.1621,26.1584 34.6624,64.8366 34.6624,116.159 0,53.672 -10.9905,93.5064 -33.158,119.503 -22.0059,25.9968 -50.0044,39.0014 -83.8337,39.0014 -32.8348,0 -59.8386,-12.8306 -81.1732,-38.33 -21.1605,-25.4995 -31.8277,-64.3393 -31.8277,-116.669z"/></glyph>
   <glyph unicode="E" horiz-adv-x="667"><path d="M73.0018 0l0 716 529.999 0 0 -120.998 -384.998 0 0 -158.999 357.995 0 0 -121.007 -357.995 0 0 -193.999 398.997 0 0 -120.998 -543.997 0z"/></glyph>
   <glyph unicode=" " horiz-adv-x="277"/>
   <glyph unicode="S" horiz-adv-x="667"><path d="M45.9987 230.003l88.9971 7.99766c4.1693,-36.0041 14.0081,-65.5009 29.5066,-88.6659 15.4985,-22.9994 39.5012,-41.6638 71.9984,-56.0031 32.4972,-14.1639 69.1637,-21.3336 109.834,-21.3336 36.1697,0 67.9947,5.33827 95.67,16.1707 27.6655,10.8324 48.1613,25.6685 61.6629,44.4986 13.5015,18.8301 20.3302,39.3356 20.3302,61.3316 0,22.337 -6.49749,41.8294 -19.5022,58.6625 -12.995,16.6675 -34.4942,30.6756 -64.4976,42.1704 -19.1613,7.33525 -61.6629,19.0054 -127.495,34.8351 -65.8322,15.8297 -111.841,30.6658 -138.172,44.6642 -34.163,18.002 -59.5003,40.339 -76.1677,66.8355 -16.8331,26.4965 -25.162,56.3343 -25.162,89.1627 0,36.3353 10.3356,70.1671 30.8314,101.505 20.4958,31.4938 50.3336,55.331 89.8349,71.6672 39.3356,16.3265 83.162,24.4995 131.333,24.4995 53.0028,0 99.8295,-8.50421 140.334,-25.6685 40.4949,-16.9987 71.6672,-42.1704 93.4976,-75.4956 21.8304,-33.1694 33.5006,-70.8392 35.1663,-112.834l-91.0038 -7.00404c-4.83172,45.1707 -21.3336,79.3337 -49.4959,102.333 -28.1623,23.165 -69.8359,34.6695 -124.836,34.6695 -57.3279,0 -99.1671,-10.5012 -125.332,-31.5036 -26.1653,-21.0024 -39.3356,-46.3299 -39.3356,-76.0021 0,-25.6588 9.34197,-46.8267 27.8408,-63.4942 18.3333,-16.5019 65.8322,-33.6662 142.828,-51.0058 77.0055,-17.4955 129.833,-32.6628 158.502,-45.6675 41.4982,-19.1613 72.3296,-43.3296 92.1631,-72.8265 19.8334,-29.3313 29.6722,-63.1728 29.6722,-101.505 0,-38.1667 -10.8324,-73.8298 -32.6725,-107.496 -21.8304,-33.6662 -52.993,-59.8315 -93.8288,-78.5057 -40.8358,-18.6645 -86.6689,-27.9967 -137.831,-27.9967 -64.6729,0 -118.835,9.49783 -162.505,28.3376 -43.8264,18.8301 -77.9991,47.1677 -102.83,85.159 -24.9963,37.8355 -38.0011,80.6683 -39.3356,128.508z"/></glyph>
   <glyph unicode="P" horiz-adv-x="667"><path d="M76.9958 0l0 716 270.342 0c47.4989,0 83.8245,-2.33793 108.996,-6.8287 35.1663,-5.83508 64.6632,-17.0084 88.5003,-33.335 23.8274,-16.5019 42.9984,-39.5012 57.5033,-69.0078 14.4952,-29.4969 21.6648,-61.9941 21.6648,-97.4916 0,-60.6692 -19.3366,-112.172 -58.1657,-154.167 -38.6732,-42.1704 -108.84,-63.1728 -210.17,-63.1728l-183.664 0 0 -291.997 -95.0075 0zm95.0075 375.997l184.998 0c61.3316,0 104.661,11.339 130.495,34.1727 25.6685,22.8338 38.5076,54.8342 38.5076,96.3324 0,29.8281 -7.50085,55.4966 -22.6682,76.8302 -15.1673,21.3336 -35.1663,35.4975 -59.8412,42.336 -15.9953,4.1693 -45.4922,6.33189 -88.325,6.33189l-183.167 0 0 -256.003z"/></glyph>
   <glyph unicode="o" horiz-adv-x="610"><path d="M39.996 265.836c0,45.6653 11.1646,89.8263 33.6678,132.495 22.5032,42.8307 54.3309,75.3298 95.5081,97.833 41.1647,22.5032 86.9917,33.8294 137.829,33.8294 78.5001,0 142.665,-25.4995 192.831,-76.4985 50.166,-51.1606 75.1682,-115.5 75.1682,-193.49 0,-78.6742 -25.3379,-143.834 -75.8395,-195.504 -50.6633,-51.6703 -114.331,-77.5055 -191.165,-77.5055 -47.4929,0 -92.8226,10.8413 -136.001,32.3375 -42.9923,21.4962 -75.8271,53.0006 -98.3303,94.6626 -22.5032,41.5004 -33.6678,92.1761 -33.6678,151.841zm140.999 -7.3353c0,-51.4963 12.1716,-90.995 36.5024,-118.335 24.5049,-27.5012 54.505,-41.1647 90.3361,-41.1647 35.6694,0 65.6696,13.6635 89.8387,41.1647 24.1568,27.3395 36.3284,67.1615 36.3284,119.329 0,50.8373 -12.1716,90.0004 -36.3284,117.34 -24.1692,27.5012 -54.1693,41.1647 -89.8387,41.1647 -35.8311,0 -65.8312,-13.6635 -90.3361,-41.1647 -24.3308,-27.3395 -36.5024,-66.8382 -36.5024,-118.335z"/></glyph>
   <glyph unicode="l" horiz-adv-x="277"><path d="M71.9978 0l0 716 136.996 0 0 -716 -136.996 0z"/></glyph>
   <glyph unicode="i" horiz-adv-x="222"><path d="M66.0023 616.001l0 99.998 88.003 0 0 -99.998 -88.003 0zm0 -616.001l0 519.007 88.003 0 0 -519.007 -88.003 0z"/></glyph>
   <glyph unicode="G" horiz-adv-x="777"><path d="M412.007 280.997l0 84.0047 302.998 0 0 -265.342c-46.5079,-36.9995 -94.5078,-64.9878 -144,-83.6665 -49.5116,-18.6589 -100.336,-27.9883 -152.334,-27.9883 -70.3388,0 -134.173,14.9987 -191.661,45.1553 -57.3492,29.9974 -100.833,73.6807 -130.015,130.513 -29.3211,56.9911 -44.0015,120.666 -44.0015,190.826 0,69.6624 14.5014,134.67 43.6832,195.162 29.1619,60.333 70.9952,105.17 125.659,134.332 54.6637,29.341 117.662,44.0015 188.996,44.0015 51.66,0 98.5061,-8.33483 140.339,-25.1636 41.8333,-16.8288 74.6554,-40.1623 98.3271,-70.0006 23.8308,-29.9974 41.8333,-69.1651 54.1664,-117.324l-85.4966 -23.3335c-10.8412,36.3231 -24.169,64.9878 -40.0032,85.9939 -15.9933,20.8271 -38.6704,37.4968 -68.3297,50.009 -29.5001,12.4923 -62.3421,18.818 -98.5061,18.818 -43.166,0 -80.5037,-6.66388 -112.152,-19.8325 -31.5092,-13.1686 -56.8519,-30.4947 -76.3462,-52.1573 -19.3352,-21.5035 -34.3339,-45.1752 -44.9961,-70.8361 -18.1616,-44.4988 -27.3319,-92.4987 -27.3319,-144.338 0,-63.9932 11.0004,-117.503 32.8221,-160.669 22.0008,-42.987 54.0073,-74.9935 95.8405,-95.8207 42.0123,-20.847 86.5111,-31.3302 133.675,-31.3302 40.9978,0 81.001,7.99666 119.99,23.8308 39.0086,15.9933 68.5087,32.8221 88.6794,50.9837l0 134.173 -210.002 0z"/></glyph>
  </font>
</defs>
</svg>
